mill livin blues 320

Livin' Blues - Rocking at the Tweed Mill Fantastic 5th ,

Se connecter Créez votre compte gratuit

Sales Online

Orphan Jon & The Abandoned - Reckless Abandon (Live) (2020 ,

Sep 29, 2020· Jazz'n'Blues’s Knowledge Base First of all, we are grateful for visiting our website We offer to you blues and jazz mp3 on one website and the main our feature is - without other music genres and without advertisement If you have some questions or proposals for better future and development of our site – please click “Contact us” and leave a message

Sales Online

(Blues / Blues-Rock) Livin' Blues - Дискография (16 ,

(Blues / Blues-Rock) Livin' Blues - Дискография (16 релизов) - 1969-2019, MP3, 320 kbps » Зарубежный блюз , место которого на концертнике Rocking at the Tweed Mill 1972-го занял Аржан Каминга На диске Bamboozle был представлен трек Overture ,

Sales Online

Livin' Blues - Rocking at the Tweed Mill - LP Album - 1973 ,

In 1967 Teddy Oberg and John Le Grand formed Livin' Blues in beatcity THE HAGUE with Teddys mom as a manager In 1969 after some changes the line-up of the band is: Teddy Oberg - Lead guitar John La Grand - Harmonica Nicko Christiansen - Vocals/Guitar Henk Smitskamp - Bass/Piano Cesar Zuiderwijk - Drums In february 1969 the band is the opening act on a Dutch tour of Peter Green's FLEETWOOD ,

Sales Online

Livin' Blues (Ливин Блюз) cкачать бесплатно в mp3 ,

Livin' Blues скачать бесплатно и без регистрации онлайн на музыкальном портале Livin' Blues - слушать онлайн и скачать на пк и телефон все песни в высоком качестве , 05:38 320 Кб/ , Rocking At The Tweed Mill 1972 Blues ,

Sales Online

Livin ' Blues (Compilation) - YouTube

Jul 17, 2016· Livin 'Blues was a blues-rock group from The Hague Around 1970 the band was with Cuby + Blizzards among the absolute top of the Dutch blues world 1 Shyl,

Sales Online

Mike Vernon – Wikipedia

1972 — Discovering the Blues — Robben Ford; 1972 — Focus III — Focus (Supervisor) 1972 — Rocking At the Tweed Mill — Livin' Blues; 1973 — Live at the Rainbow — Focus (Supervisor) 1973 — History Of British Blues Vol1 (Various Artists) (produksjon - tekst i omslag and on one song) 1973 — Ram Jam Josey — Livin' Blues

Sales Online

Livin' Blues - Download all songs Livin' Blues - Download ,

Here you can buy and download music mp3 Livin' Blu You can buy latest album Snakedance Live 1989 1989 - Livin' Blu Listen online 12 songs from Blue Breeze 1976 - Livin' Blu Daily updates!

Sales Online

Shaun Murphy - Free Mp3 Downloads - Myzcloud

Download and listen online your favorite mp3 songs and music by Shaun Murphy on Myzcloudme

Sales Online

livin blues rocking at the tweed mill

rocking at the tweed mill livin blues 320 sher digital tutors creating a stylized cartoon in zbrush the sopranos fs9 wilco 737 pilot in command pci en 10de dev livin blues rocking at the tweed mill Get Price

Sales Online

(Blues) Livin' Blues - Rocking At The Tweed Mill (SHM ,

Filename C:\xxx\Livin' Blues - Rocking At The Tweed Mill (1972)\Livin' Blues - Rocking At The Tweed Millwav Peak level 1000 % Range quality 999 % Test CRC 92DA0135 Copy CRC 92DA0135 Copy OK No errors occurred AccurateRip summary Track 1 not present in database Track 2 not present in database Track 3 not present in database

Sales Online

Livin' Blues - The First Five (2019) [6CD Box Set] / AvaxHome

Имя файла E:\Torrents-seed\Livin' Blues - 2019 - The First Five\1972 - Rocking At The Tweed Mill\Livin' Blues - Rocking At The Tweed Millwav Пиковый уровень 681 % Скорость извлечения 77 X Качество диапазона 999 % CRC теста DEE47E98 CRC копии DEE47E98 Копирование, OK

Sales Online

livin' blues: rocking at the tweed mill (LP) | LPCDreissues

Livin' Blues was a Dutch blues rock group formed in The Hague in 1967 by guitarist and front man Ted Oberg During the early 70s they were considered, together with Cuby & The Blizzards, as the absolute top of the Dutch blues scene Although best known in the Netherlands, Livin' Blues also gained a following elsewhere in Europe, especially in ,

Sales Online

Livin' Blues - Rocking at the Tweed Mill Fantastic 5th ,

Sign in Create your free account

Sales Online

Livin' Blues — слушать онлайн на ЯндексМузыке

Livin' Blues: Sunrise, Go-Go-Train, Sweet Suzanne и другие песни

Sales Online

Livin Blues: Rocking At The Tweed Mill – Victrola

11 Shady Shady 12 Fool on You 13 Tongue N Groove 14 Youre a Stranger 15 Sweet Suzanne 16 Aint No Use Crying 17 Diving Duck Blues 18 Eye to Eye 19 Please Dont Leave Me H 034W 1252L 1255

Sales Online

Recensie: Livin’ Blues - Rocking At The Tweed Mill | Blues ,

Sep 17, 2017· Livin’ Blues – Rocking At The Tweed Mill Format: 180 grams Vinyl LP / Label: Music On Vinyl Releasedatum: 13 januari 2017 Tekst: Peter Marinus Livin’ Blues was een Haagse blues band, die samen met Cuby & The Blizzards de top van de Nederblues vormden in de jaren 60 en 70 Toch kreeg Livin’ Blues nooit echt dezelfde waardering als de ,

Sales Online

(Blues Rock) [CD] Livin' Blues - Discography 1969-2019 (21 ,

Filename D:\Sket4er\Livin' Blues – Rocking At The Tweed Mill (1973) 2013\Livin' Blues - Rocking At The Tweed Millwav Peak level 681 % Extraction speed 28 X Range quality 999 % Test CRC 04771380 Copy CRC 04771380 Copy OK No errors occurred AccurateRip summary

Sales Online

LIVIN` BLUES / ROCKING AT THE TWEED MILL | eBay

Sep 25, 2020· livin` blues / rocking at the tweed mill Philips 6423052, Germany LP - EX-, Die Platte hat kleine oberflächliche Krkratzer , jedoch haben diese keinen Einfluss auf die Soundqualität

Sales Online

Новый CD Livin' Blues - Rocking At The Tweed Mill (made in ,

Новый немецкий компакт-диск - Livin' Blues - Rocking At The Tweed Mill, не запечатан, куплен в Германии Альбом 1973 года, переиздание 2013 года Не запечатан

Sales Online

Livin' Blues (Ливин Блюз) - Скачать бесплатно MP3 группы ,

Скачивай и слушай бесплатно любимые песни и музыку группы Livin' Blues в формате mp3 на сайте Myzcloudme , 05:38 320 Кб/ , Rocking At The Tweed Mill

Sales Online

(Blues Rock) [CD] Livin\' Blues - Discography 1969-1995 ,

Filename D:\Sket4er\Livin' Blues – Rocking At The Tweed Mill (1973) 2013\Livin' Blues - Rocking At The Tweed Millwav Peak level 681 % Extraction speed 28 X Range quality 999 % Test CRC 04771380 Copy CRC 04771380 Copy OK No errors occurred AccurateRip summary

Sales Online

Livin Blues – Rocking At The Tweed Mill (1972)

Jul 17, 2010· Livin Blues – Rocking At The Tweed Mill (1972) 01 Ain't No Use Crying (Christiansen/La Grand/Oberg/Van Buuren) - 4:04 02 Diving Duck Blues (McDowell) - 6:55 , This was the first Livin' Blues album not to be produced by ex-Golden Earring drummer Jaap Eggermont and was instead produced by Englishman Mike Vernon, who had experience producing ,

Sales Online

Livin' Blues - Ain't No Use Crying - À écouter sur Deezer

Écoutez Ain't No Use Crying par Livin' Blues - Rocking At The Tweed Mill Deezer : musique en streaming gratuite Découvrez plus de 56 millions de titres, créez et écoutez vos propres playlists et partagez vos titres préférés avec vos amis

Sales Online

Livin' Blues - Eye To Eye - YouTube

Sep 14, 2013· 9 videos Play all Livin' Blues "Rocking at the Tweed Mill" - Full Album Roy Hulland Walter Trout, Popa Chubby "Giants of bluesrock"-Jam - Limbourg, Le Kursaal 13112011 (pt2) - Duration: 12:31 ,

Sales Online

Livin' Blues - Hell's Session (1969) Скачать бесплатно ,

«Hell's Session» — нидерландской группы Livin' Blues, выпущенный в 1969 году, в жанре Blues Rock Здесь вы можете скачать «Hell's Session» в формате MP3 320 ,

Sales Online

Livin' Blues — все минусовки (8)

Livin' Blu Всего минусовок: 8 , Back Stage 2 5:44 224 kbps задав Black Spider Woman 3:47 320 kbps мастер ; Black Spider Woman (Studio Remix) 3:45 320 kbps-Blue Breeze 6:57 192 kbps-обновлено 07032018 Midnight blues 3:18 256 kbps задав Shylina 5:37 320 kbps-Shylina 2 4:12 320 ,

Sales Online

Livin' Blues - Rocking At The Tweed Mill (1973, Vinyl ,

Auf Discogs können Sie sich ansehen, wer an 1973 Vinyl von Rocking At The Tweed Mill mitgewirkt hat, Rezensionen und Titellisten lesen und auf dem Marktplatz nach der Veröffentlichung suchen

Sales Online

Livin Blues – Rocking At The Tweed Mill (1972)

Livin Blues – Rocking At The Tweed Mill (1972) Written by bluesever Saturday, 17 July 2010 17:25 - Last Updated Friday, 10 May 2013 16:46 "Rockin' at the Tweed Mill" is more or less a continuation from Bamboozle but you can see other elements creeping in here in some of the softer numbers but there's no lack of energy on this album

Sales Online